All the President's Men | Mere Angne Mein | Watch Movie

Ugrás a tartalomhoz

Fotó

Just Getting Started (2017) BDRip.x264.Engdub678 MB / Színes angolul beszélő amerikai Akció, Vígjáték (2017) / netshare

- - - - -

  • Hozzászólás írásához be kell jelentkezni!
Még nem érkezett válasz erre a témára

#1
hegyiwarez86

hegyiwarez86

    Betűszaporító

  • Feltöltő
  • PipaPipaPipaPipaPipaPipaPipa
  • 832
  • 1097 Hozzászólás
  • 2684 köszönet
  • Offline
  • Neme:Férfi
 
 
 
poster_opt.jpg
 
Just Getting Started
 
Színes angolul beszélő amerikai Akció, Vígjáték (2017)
 
======= [ :: STáBLiSTa :: ] =======
 
 
Rendező: Ron Shelton
Író: Ron Shelton
Szereplők: Morgan Freeman, Glenne Headly, Tommy Lee Jones
 
 
======= [ :: TaRTaLoM :: ] =======
 
 
Morgan Freeman játssza Duke Divert, egy üdülőhely vezetőjét. Ő az ász. Mindenben. Póker, tánc, gold, pingpong, mindenben otthon van. És az idős hölgyek is odavannak érte. Aztán megjelenik a színen a konkurencia, a Tommy Lee Jones által megformált Leo felbukkanása alaposan felrázza az életet Villa Caprin.
 
 
======= [ :: SCreeNSh0Ts :: ] =======
 
52405106494075948796_thumb.jpg
 
======= [ TeCH InFO ] =======
 
 
 
Video
ID                                       : 1
Format                                   : AVC
Format/Info                              : Advanced Video Codec
Format profile                           : [email protected]
Format settings                          : CABAC / 5 Ref Frames
Format settings, CABAC                   : Yes
Format settings, RefFrames               : 5 frames
Codec ID                                 : V_MPEG4/ISO/AVC
Duration                                 : 1 h 30 min
Bit rate                                 : 924 kb/s
Width                                    : 720 pixels
Height                                   : 300 pixels
Display aspect ratio                     : 2.40:1
Frame rate mode                          : Constant
Frame rate                               : 23.976 FPS
Color space                              : YUV
Chroma subsampling                       : 4:2:0
Bit depth                                : 8 bits
Scan type                                : Progressive
Bits/(Pixel*Frame)                       : 0.178
Stream size                              : 600 MiB (89%)
Title                                    : X264
Writing library                          : x264 core 155 r2901 7d0ff22
 
 
Audio
ID                                       : 2
Format                                   : AAC
Format/Info                              : Advanced Audio Codec
Format profile                           : LC
Codec ID                                 : A_AAC-2
Duration                                 : 1 h 30 min
Bit rate                                 : 117 kb/s
Channel(s)                               : 2 channels
Channel positions                        : Front: L R
Sampling rate                            : 48.0 kHz
Frame rate                               : 46.875 FPS (1024 SPF)
Compression mode                         : Lossy
Stream size                              : 76.3 MiB (11%)
Language                                 : English
Default                                  : Yes
Forced                                   : No
 
 
 
======= [ DoWNLoAD ] =======
 
 

Kérlek Jelentkezz be vagy Regisztrálj hogy lásd a rejtett tartalmat.

 
 
 
 
 
 

  • 0

Megköszönte 2 Felhasználó:
szoszimo1111 , szabsan



0 felhasználó olvassa ezt a témát.

0 felhasználó, 0 vendég, 0 anonim felhasználó